Canakkale Yolun Sonu 2013 DVDSCR XviD HDTURK torrent

0
0
0

Downloaded:8

Category:Movies > Movies

Total Size:701.35 MB

Added:20 Apr 2013 00:50:00

Infohash:9898D2E6B81822023523B10C3AFB956878004154

Last Updated:1 years 3 months 10 days ago

  • Canakkale.Yolun.Sonu.2013.DVDSCR.XviD-HDTURK
    • documentsTorrent downloaded from unhide-torrents.org.NFO28 B
    • videoCanakkale.Yolun.Sonu.2013.DVDSCR.XviD-HDTURK.avi701.3 MB
    • documentsCanakkale.Yolun.Sonu.2013.DVDSCR.XviD-HDTURK.nfo2.48 KB
    • musicCanakkale.Yolun.Sonu.2013.DVDSCR.XviD-HDTURK.srt50.45 KB

image
http://unhide-torrents.org/
http://www.imdb.com/title/tt2667550/
Action | Drama | History - 15 March 2013 (Turkey)
7,7 Your rating: -/10 Ratings: 7,7/10 from 569 users
SUBTiTLES.......: Bulgarian
Language : Turkish
Format : AVI
Format/Info : Audio Video Interleave
File size : 701 MiB
Duration : 1h 40mn
Overall bit rate : 971 Kbps
Movie name : Canakkale Yolun Sonu (2013) DVDSCRip XviD-HDTURK
Writing application : VirtualDubMod 1.5.10.2 (build 2542/release)
Writing library : VirtualDubMod build 2542/release
Video
ID : 0
Format : MPEG-4 Visual
Format profile : Advanced Simple@L5
Format settings, BVOP : 4
Format settings, QPel : No
Format settings, GMC : No warppoints
Format settings, Matrix : Default (MPEG)
Codec ID : XVID
Codec ID/Hint : XviD
Duration : 1h 40mn
Bit rate : 834 Kbps
Width : 640 pixels
Height : 352 pixels
Display aspect ratio : 16:9
Frame rate : 23.976 fps
Color space : YUV
Chroma subsampling : 4:2:0
Bit depth : 8 bits
Scan type : Progressive
Compression mode : Lossy
Bits/(Pixel*Frame) : 0.154
Stream size : 602 MiB (86%)
Writing library : XviD 1.2.1 (UTC 2008-12-04)
Audio
ID : 1
Format : MPEG Audio
Format version : Version 1
Format profile : Layer 3
Mode : Joint stereo
Mode extension : MS Stereo
Codec ID : 55
Codec ID/Hint : MP3
Duration : 1h 40mn
Bit rate mode : Constant
Bit rate : 128 Kbps
Channel(s) : 2 channels
Sampling rate : 48.0 KHz
Compression mode : Lossy
Stream size : 92.4 MiB (13%)
Alignment : Aligned on interleaves
Interleave, duration : 42 ms (1.00 video frame)
Interleave, preload duration : 504 ms
imageimageimageimage

*Last scraped 1 years 3 months 10 days ago!
NameSeedLeech
udp://tracker.publicbt.com:80/announce 2 6
udp://tracker.openbittorrent.com:80/announce 7 16
udp://fr33domtracker.h33t.com:3310/announce 8 14
udp://tracker.istole.it:80/announce 12 13
udp://ipv4.tracker.harry.lu:80/announce 12 13
udp://fr33dom.h33t.com:3310/announce
udp://www.h33t.com:3310/announce
udp://9.rarbg.me:2710/announce
udp://9.rarbg.com:2710/announce

Please write a few words

or post something reasonalbe and useful about this torrent (if it is a spam torrent, or corrupted...etc)