Leenuh Rae - Black Cock Chasers torrent

0
0
0

Downloaded:10

Category:Xxx > unknown

Total Size:304.65 MB

Added:04 Sep 2013 05:40:02

Infohash:78F805DFFB2141464BBAC2A64922075A301F1691

Last Updated:1 years 1 months 18 days ago

  • videoLeenuh Rae - Black Cock Chasers.avi304.65 MB

Leenuh Rae - Black Cock Chasers
Screen:
http://amateurfreak.org/share-09A4_5225FB84.html
http://amateurfreak.org/share-579F_5225FB84.html
http://amateurfreak.org/share-5BED_5225FB84.html
File Size: 304 MB | Resolution: 640x360 | Duration: 24:47 | Format: .avi
Format                                   : AVI
Format/Info                              : Audio Video Interleave
File size                                : 305 MiB
Duration                                 : 24mn 47s
Overall bit rate                         : 1 718 Kbps
Writing application                      : Lavf52.39.1
Video
ID                                       : 0
Format                                   : AVC
Format/Info                              : Advanced Video Codec
Format profile                           : Baseline@L5.1
Format settings, CABAC                   : No
Format settings, ReFrames                : 1 frame
Format settings, GOP                     : M=1, N=12
Codec ID                                 : H264
Duration                                 : 24mn 47s
Bit rate                                 : 1 615 Kbps
Width                                    : 640 pixels
Height                                   : 360 pixels
Display aspect ratio                     : 16:9
Frame rate                               : 30.000 fps
Color space                              : YUV
Chroma subsampling                       : 4:2:0
Bit depth                                : 8 bits
Scan type                                : Progressive
Bits/(Pixel*Frame)                       : 0.234
Stream size                              : 291 MiB (95%)
Writing library                          : x264 core 57
Encoding settings                        : cabac=0 / ref=1 / deblock=0:0:0 / analyse=0x1:0 / me=dia / subme=7 / brdo=0 / mixed_ref=0 / me_range=4 / chroma_me=0 / trellis=0 / 8x8dct=0 / cqm=0 / deadzone=21,11 / chroma_qp_offset=0 / threads=1 / nr=0 / decimate=1 / mbaff=0 / bframes=0 / keyint=12 / keyint_min=7 / scenecut=0 / rc=abr / bitrate=1615 / ratetol=2.5 / rceq='tex^qComp' / qcomp=0.50 / qpmin=2 / qpmax=31 / qpstep=3 / ip_ratio=1.25
Audio
ID                                       : 1
Format                                   : MPEG Audio
Format version                           : Version 1
Format profile                           : Layer 3
Mode                                     : Joint stereo
Mode extension                           : MS Stereo
Codec ID                                 : 55
Codec ID/Hint                            : MP3
Duration                                 : 24mn 47s
Bit rate mode                            : Constant
Bit rate                                 : 64.0 Kbps
Channel(s)                               : 2 channels
Sampling rate                            : 48.0 KHz
Compression mode                         : Lossy
Stream size                              : 11.3 MiB (4%)
Alignment                                : Aligned on interleaves
Interleave, duration                     : 24 ms (0.72 video frame)
Interleave, preload duration             : 24 ms
Writing library                          : LAME3.96.1
Screenshot:

*Last scraped 1 years 1 months 18 days ago!
NameSeedLeech
udp://tracker.openbittorrent.com:80 28 14
udp://tracker.istole.it:80/announce 41 19
udp://tracker.publicbt.com:80/announce 24 18
http://tracker.torrent.to:2710/announce - -
udp://tracker.1337x.org:80/announce - -
http://pow7.com/announce
http://torrent-downloads.to:5869/announce
http://fr33dom.h33t.com:3310/announce

Please write a few words

or post something reasonalbe and useful about this torrent (if it is a spam torrent, or corrupted...etc)