Boss (2013) CAMRip Bengali Movie torrent

0
0
0

Downloaded:10

Category:Movies > Movies

Total Size:692.82 MB

Added:06 Sep 2013 11:45:02

Infohash:CC5C0DBE828DC7376C5F4E655104FA3C3E805663

Last Updated:7 months 14 days 7 hours ago

  • Jekhane Bhooter Bhoy 2012 CAMRip Bengali Movie
    • documentsTorrent Downloaded From Digtorrent.org.txt346 B
    • videoJekhane Bhooter Bhoy 2012 CAMRip Bengali Movie.mkv692.82 MB
    • documentsTorrent downloaded from souravfile torrents on BTScene.eu.txt69 B


Cover:

Release info:
Code
General
Format                                   : Matroska
Format version                           : Version 2
File size                                : 693 MiB
Duration                                 : 1h 34mn
Overall bit rate mode                    : Variable
Overall bit rate                         : 1 026 Kbps
Movie name                               : Jekhane Bhooter Bhoy 2012
Video
ID                                       : 1
Format                                   : MPEG-4 Visual
Format profile                           : Advanced Simple@L5
Format settings, BVOP                    : No
Format settings, QPel                    : No
Format settings, GMC                     : No warppoints
Format settings, Matrix                  : Custom
Codec ID                                 : V_MS/VFW/FOURCC / XVID
Codec ID/Hint                            : XviD
Duration                                 : 1h 34mn
Bit rate                                 : 898 Kbps
Width                                    : 720 pixels
Height                                   : 400 pixels
Display aspect ratio                     : 16:9
Frame rate mode                          : Constant
Frame rate                               : 23.976 fps
Color space                              : YUV
Chroma subsampling                       : 4:2:0
Bit depth                                : 8 bits
Scan type                                : Progressive
Compression mode                         : Lossy
Bits/(Pixel*Frame)                       : 0.130
Stream size                              : 606 MiB (88%)
Title                                    : Jekhane Bhooter Bhoy 2012
Language                                 : Bengali
Default                                  : Yes
Forced                                   : No
Audio
ID                                       : 2
Format                                   : MPEG Audio
Format version                           : Version 1
Format profile                           : Layer 3
Mode                                     : Joint stereo
Muxing mode                              : Header stripping
Codec ID                                 : A_MPEG/L3
Codec ID/Hint                            : MP3
Duration                                 : 1h 34mn
Bit rate mode                            : Variable
Bit rate                                 : 108 Kbps
Nominal bit rate                         : 128 Kbps
Channel(s)                               : 2 channels
Sampling rate                            : 48.0 KHz
Compression mode                         : Lossy
Stream size                              : 72.7 MiB (10%)
Title                                    : Jekhane Bhooter Bhoy 2012
Writing library                          : LAME3.98r
Language                                 : Bengali
Default                                  : Yes
Forced                                   : No
Source:
credit to original movie ripper KINGMAX (Thanks)
IMDB Info:
Code
Sandip Ray's next where 4 ghost stories are spun together in a comical twist surrounding unusual events.The film is a collection of four short films based on four Bengali short stories- Shar

*Last scraped 7 months 14 days 7 hours ago!
NameSeedLeech
udp://tracker.publicbt.com:80/announce 11 3
udp://tracker.openbittorrent.com:80/announce 8 1
udp://fr33domtracker.h33t.com:3310/announce - -
udp://tracker.istole.it:80/announce 13 2
udp://tracker.ccc.de:80/announce - -
http://exodus.desync.com:6969/announce
http://exodus.desync.com/announce
http://tracker.ex.ua/announce
http://fr33dom.h33t.com:3310/announce
udp://9.rarbg.com:2710/announce

Please write a few words

or post something reasonalbe and useful about this torrent (if it is a spam torrent, or corrupted...etc)